+ Trả lời bài viết
Trang 1/3 123 CuốiCuối
Hiện kết quả từ 1 tới 10 của 27

Chủ đề: Album hát Xẩm cuả Nghệ nhân - NSƯT Hà Thị Cầu

  1. #1

    Thành viên Bị cấm

    Avatar của Thanh Tùng


    your profile
    Tham gia ngày
    May 2011
    Đến từ
    Hà Nội
    Bài gửi
    939
    Cảm ơn
    41
    Được cảm ơn 570 lần trong 245 bài

    your profile
    Lần sửa cuối bởi Thanh Tùng; 10-06-2011 lúc 11:01 PM

  2. Có 11 thành viên dưới đây đã cảm ơn Thanh Tùng vì bài viết này.

    đôngcuôngtuầnquán (14-06-2011), CoCoMy (10-06-2011), detu (17-01-2012), dongque (12-04-2012), huongkute (11-06-2011), maiyeuanh_vh2009 (16-03-2012), mantico (14-06-2011), o0oatmo0o (13-06-2011), toiyeuadmin (10-07-2011), Trí Minh (04-07-2011), zAdministrator (10-06-2011)

  3. #2

    Thành viên tích cực

    Avatar của CoCoMy


    your profile
    Tham gia ngày
    May 2011
    Đến từ
    HaiBaTrung - HaNoi
    Bài gửi
    120
    Cảm ơn
    454
    Được cảm ơn 34 lần trong 17 bài

    your profile
    bài xẩm đầu tiên được nghe trong đời và nhớ mãi là Xẩm thập ân và Xẩm ngược đời
    Là tinh hồn cũ đã ba sinh
    Trăng gió làm chi để bận mình

  4. #3

    Thành viên Bị cấm

    Avatar của Thanh Tùng


    your profile
    Tham gia ngày
    May 2011
    Đến từ
    Hà Nội
    Bài gửi
    939
    Cảm ơn
    41
    Được cảm ơn 570 lần trong 245 bài

    your profile
    , xẩm thập ân thì sâu sắc, ngược đời thì mỉa mai, cũng có cả nét chua cay châm chích nữa. Cụ Cầu hát xẩm thì tuyệt nhất

  5. Những thành viên dưới đây đã cảm ơn Thanh Tùng cho bài viết này.

    CoCoMy (10-06-2011)

  6. #4

    Thành viên cao cấp

    Avatar của hoa.xuyen.tuyet


    your profile
    Tham gia ngày
    May 2011
    Đến từ
    Hải Phòng
    Bài gửi
    1.084
    Cảm ơn
    121
    Được cảm ơn 412 lần trong 228 bài

    your profile
    Có một bài hát xẩm do Nghe nhân HàThi Cầu sáng tác và biểu diẻn rất thàh công là bài " Con ơi theo đảng trọn đời"
    Không biết cả nhà đã ai nghe chưa ???
    Bác nào có hứng thú nghe để em post lên nhỉ

  7. #5

    Thành viên Bị cấm

    Avatar của Thanh Tùng


    your profile
    Tham gia ngày
    May 2011
    Đến từ
    Hà Nội
    Bài gửi
    939
    Cảm ơn
    41
    Được cảm ơn 570 lần trong 245 bài

    your profile
    Quote Nguyên văn bởi cuteboy_hp2009 Xem bài viết
    Có một bài hát xẩm do Nghe nhân HàThi Cầu sáng tác và biểu diẻn rất thàh công là bài " Con ơi theo đảng trọn đời"
    Không biết cả nhà đã ai nghe chưa ???
    Bác nào có hứng thú nghe để em post lên nhỉ
    Bạn post lên đi. He,

  8. #6

    Thành viên cao cấp

    Avatar của hoa.xuyen.tuyet


    your profile
    Tham gia ngày
    May 2011
    Đến từ
    Hải Phòng
    Bài gửi
    1.084
    Cảm ơn
    121
    Được cảm ơn 412 lần trong 228 bài

    your profile
    Để đầu tuàn sau, bây giò khong có file trên máy này. Lát nữa mình sẽ úp bài hát xẩm: chiếc trống cơm trước. Mọi ngưoi cung nghe nha. Còn bay giò đi ăn cơm đã
    Chúc cả nhà ngon miệng

  9. #7
    DinhManh

    Khách

    Avatar của DinhManh

    Bản "Theo Đảng trọn đời" mình không kiếm được của cụ Cầu hát, chỉ có của em Phương hát thôi, em này hát cũng ko hay lắm.

    Trong số các bài cụ Cầu hát mà mình được nghe, mình thích nhất bài "Dứa dại có gai"

  10. #8

    Thành viên tích cực

    Avatar của doatphach


    your profile
    Tham gia ngày
    May 2011
    Bài gửi
    223
    Cảm ơn
    108
    Được cảm ơn 108 lần trong 48 bài

    your profile
    Tí nữa up album lossless " Xẩm Chợ" lên mới được

  11. #9

    Thành viên tích cực

    Avatar của doatphach


    your profile
    Tham gia ngày
    May 2011
    Bài gửi
    223
    Cảm ơn
    108
    Được cảm ơn 108 lần trong 48 bài

    your profile

    [MF] [LOSSLESS] NSƯT Hà Thị Cầu - Xẩm Chợ












    Tiểu sử và sự nghiệp

    Bà tên thật Hà Thị Năm, sinh năm 1917 tại huyện Ý Yên, tỉnh Nam Định trong một gia đình 3 đời hát xẩm. Cha mất sớm, bà cùng mẹ về sinh sống tại thôn Quảng Phúc, xã Yên Phong, huyện Yên Mô, Ninh Bình.
    Khoảng tám tuổi, cô bé Hà Thị Năm (Cầu là tên con trai cả) đã bê chiếc thau đồng theo bố mẹ lê la khắp các chợ quê để hành nghề hát xẩm kiếm sống. Thời gian sau đó Hà Thị Năm đã nhập tâm làu làu những câu hát rong nơi kẻ chợ. Cha mất năm mười sáu tuổi Hà Thị Năm cùng mẹ sống tại Yên Mô (Ninh Bình). Tại đây bà đã làm vợ thứ 18 [2] của ông trùm xẩm Nguyễn Văn Mậu. Năm đó, ông Mậu 49 tuổi, từng chung sống với 17 người đàn bà, trong đó có 8 bà chính thức. Khi bà gần 40 tuổi thì ông Mậu qua đời, để lại cho bà ba người con.
    Năm 1977, sau ngày thống nhất, bà viết bài Theo Đảng trọn đời. Sau đó bà đã được tham dự nhiều hội diễn văn nghệ quần chúng toàn quốc, đoạt được nhiều huy chương vàng, giải thưởng đặc biệt. Năm 1981 -1982, bà được Nhạc viện Hà Nội mời tham gia phụ trách chương trình nghệ thuật chào mừng Đại hội Đảng toàn quốc lần thứ V. Bà đã nhận được bằng khen năm 1998 của Đài Tiếng nói Việt Nam và giải đặc biệt "Nghệ nhân hát chèo tỉnh Ninh Bình" trong Liên hoan trích đoạn tuồng chèo hay toàn quốc.
    Hiện tại bà đã kết thúc công việc hát rong của mình. Hoàn cảnh khó khăn của gia đình bà đã được đề cập nhiều trên các phương tiện truyền thông và đã nhận được nhiều sự ủng hộ tích cực của nhiều người hảo tâm. Những làn điệu xẩm cùng giọng hát của bà là những di sản quý giá còn lại của nghệ thuật xẩm. Bà đã được Hội văn nghệ dân gian Việt Nam tổ chức trao tặng danh hiệu Nghệ nhân dân gian vào ngày 25 tháng 12 năm 2004 và đã được Nhà nước Việt Nam trao tặng danh hiệu Nghệ sĩ ưu tú.
    Năm 2008, Nghệ nhân Hà Thị Cầu đã nhận được giải thưởng Đào Tấn, giải thưởng cho những đóng góp trong việc gìn giữ vốn quý nghệ thuật dân tộc.
    Mặc dù những giải thưởng và danh hiệu, nhưng cuộc sống của bà vẫn vô cùng khổ cực. Đến cuối đời, bà vẫn chưa một ngày thoát khỏi cảnh nghèo khó và gia đình bà Cầu thuộc diện những hộ dân nghèo nhất xã .

    Đĩa nhạc

    VCD Giai điệu 4 mùa
    CD Xẩm chợ - Sài Gòn Audio phát hành
    CD Hát xẩm - Viện âm nhạc

    Phim

    http://bee.net.vn/channel/3481/20091...-phim-1732092/
    [DOWNLOAD][/DOWNLOAD]


    Nghe thêm
    http://www.last.fm/music/Hà+Thị+Cầu



    [hide][/hide]

    log
    Mã:
    CUERipper v2.0.9 Copyright (C) 2008-10 Gregory S. Chudov
    
    EAC extraction logfile from 12. August 2010, 15:28
    
    NSUT Ha Thi Cau / Xam Cho
    
    Used drive  : ASUS CB-5216A   Adapter: 1  ID: 0
    
    Read mode               : Secure
    Utilize accurate stream : Yes
    Defeat audio cache      : Yes
    Make use of C2 pointers : No
    
    Read offset correction                      : 6
    Overread into Lead-In and Lead-Out          : No
    Fill up missing offset samples with silence : Yes
    Delete leading and trailing silent blocks   : No
    Null samples used in CRC calculations       : Yes
    Used interface                              : Native Win32 interface for Win NT & 2000
    Gap handling                                : Appended to previous track
    
    Used output format : Internal WAV Routines
    Sample format      : 44.100 Hz; 16 Bit; Stereo
    
    
    TOC of the extracted CD
    
         Track |   Start  |  Length  | Start sector | End sector 
        ---------------------------------------------------------
            1  |  0:00.00 |  2:04.10 |         0    |     9309   
            2  |  2:04.10 |  3:48.20 |      9310    |    26429   
            3  |  5:52.30 | 17:26.11 |     26430    |   104890   
            4  | 23:18.41 |  5:29.16 |    104891    |   129581   
            5  | 28:47.57 | 10:46.30 |    129582    |   178061   
            6  | 39:34.12 |  6:10.28 |    178062    |   205839   
            7  | 45:44.40 |  8:06.00 |    205840    |   242289   
            8  | 53:50.40 |  3:59.02 |    242290    |   260216   
    
    
    Track  1
    
         Filename C:\Documents and Settings\thaonv\My Documents\My Music\NSUT Ha Thi Cau\1999 - Xam Cho\01. Loi Gioi Thieu.wav
    
         Pre-gap length  0:00:02.00
    
         Peak level 89.8 %
         Track quality 100.0 %
         Test CRC 8FD7FC08
         Copy CRC 8FD7FC08
         Track not present in AccurateRip database
         Copy OK
    
    Track  2
    
         Filename C:\Documents and Settings\thaonv\My Documents\My Music\NSUT Ha Thi Cau\1999 - Xam Cho\02. Xam Hue Tinh.wav
    
         Pre-gap length  0:00:02.00
    
         Peak level 98.4 %
         Track quality 100.0 %
         Test CRC AE4F1F9E
         Copy CRC AE4F1F9E
         Track not present in AccurateRip database
         Copy OK
    
    Track  3
    
         Filename C:\Documents and Settings\thaonv\My Documents\My Music\NSUT Ha Thi Cau\1999 - Xam Cho\03. Xam Thap An.wav
    
         Pre-gap length  0:00:02.00
    
         Peak level 89.0 %
         Track quality 100.0 %
         Test CRC 64230F98
         Copy CRC 64230F98
         Track not present in AccurateRip database
         Copy OK
    
    Track  4
    
         Filename C:\Documents and Settings\thaonv\My Documents\My Music\NSUT Ha Thi Cau\1999 - Xam Cho\04. Sang Ca Dem Ram.wav
    
         Pre-gap length  0:00:02.00
    
         Peak level 89.0 %
         Track quality 100.0 %
         Test CRC 8238F786
         Copy CRC 8238F786
         Track not present in AccurateRip database
         Copy OK
    
    Track  5
    
         Filename C:\Documents and Settings\thaonv\My Documents\My Music\NSUT Ha Thi Cau\1999 - Xam Cho\05. Truong Chi.wav
    
         Pre-gap length  0:00:02.00
    
         Peak level 88.1 %
         Track quality 100.0 %
         Test CRC BF803902
         Copy CRC BF803902
         Track not present in AccurateRip database
         Copy OK
    
    Track  6
    
         Filename C:\Documents and Settings\thaonv\My Documents\My Music\NSUT Ha Thi Cau\1999 - Xam Cho\06. Re Luoi.wav
    
         Pre-gap length  0:00:02.00
    
         Peak level 88.5 %
         Track quality 100.0 %
         Test CRC E3794A44
         Copy CRC E3794A44
         Track not present in AccurateRip database
         Copy OK
    
    Track  7
    
         Filename C:\Documents and Settings\thaonv\My Documents\My Music\NSUT Ha Thi Cau\1999 - Xam Cho\07. Giot Nuoc Canh Beo.wav
    
         Pre-gap length  0:00:02.00
    
         Peak level 78.9 %
         Track quality 100.0 %
         Test CRC 911A7F3E
         Copy CRC 911A7F3E
         Track not present in AccurateRip database
         Copy OK
    
    Track  8
    
         Filename C:\Documents and Settings\thaonv\My Documents\My Music\NSUT Ha Thi Cau\1999 - Xam Cho\08. Nguoc Doi.wav
    
         Pre-gap length  0:00:02.00
    
         Peak level 85.9 %
         Track quality 100.0 %
         Test CRC 9811F51B
         Copy CRC 9811F51B
         Track not present in AccurateRip database
         Copy OK
    
    
    None of the tracks are present in the AccurateRip database
    
    No errors occurred
    
    End of status report


  12. Có 3 thành viên dưới đây đã cảm ơn doatphach vì bài viết này.

    bailing (21-07-2011), n@mpt (05-12-2013)

  13. #10

    Super Moderator

    Avatar của hoang.bao198x


    your profile
    Tham gia ngày
    May 2011
    Bài gửi
    653
    Cảm ơn
    220
    Được cảm ơn 398 lần trong 211 bài

    your profile
    Bạn ơi có thể post trực tiếp được không? Để mọi người nghe luôn

+ Trả lời bài viết
Trang 1/3 123 CuốiCuối

Tag của chủ đề này

Quyền viết bài

  • Bạn không thể gửi chủ đề mới
  • Bạn không thể gửi trả lời
  • Bạn không thể gửi file đính kèm
  • Bạn không thể sửa bài viết của mình